Diese Website existiert nur weil wir Werbung mit AdSense ausliefern.
Bitte den AdBlocker daher auf dieser Website ausschalten! Danke.

Impress Video abspielen

Alles rund um Büroanwendungen, Bildungsprogramme und Spiele unter Linux

Moderator: Moderatoren

Antworten
th.giese
Hacker
Hacker
Beiträge: 297
Registriert: 16. Apr 2006, 13:32

Impress Video abspielen

Beitrag von th.giese » 2. Mai 2018, 11:26

Hallo,

ich möchte in eine Präsentation ein Video (mepg) einbinden. Mit Einfügen/Audio-Video wählte ich die Datei aus. In Impress wird nun ein Grafik mit einer Musiknote angezeigt. Bei der Präsentation wird nun auch nur der Ton ausgegeben, ein Bild erscheint nicht. Der Dragon-Player gibt auch nur den Ton aus. Der VLC-Player zeigt das Video normal an. Daher weiß ich das Problem jetzt nicht einzuordnen, wo ich ansetzen muss. Ich verwende openSUSE Leap 42.3 und LibreOffice 6.0.4.1.
Hat jemand ne Idee wo ich eingreifen muss?
Bis dann
Thomas

Werbung:
Benutzeravatar
soyo
Hacker
Hacker
Beiträge: 579
Registriert: 30. Nov 2009, 18:25

Re: Impress Video abspielen

Beitrag von soyo » 2. Mai 2018, 11:54

Hi
Öffne mal dein Video mit MEDIAINFO
stell Medianfo auf Text um , kopier den ganzen Text , und stell ihn hierrein .
MfG soyo

th.giese
Hacker
Hacker
Beiträge: 297
Registriert: 16. Apr 2006, 13:32

Re: Impress Video abspielen

Beitrag von th.giese » 2. Mai 2018, 13:36

soyo hat geschrieben:
2. Mai 2018, 11:54
Hi
Öffne mal dein Video mit MEDIAINFO
stell Medianfo auf Text um , kopier den ganzen Text , und stell ihn hierrein .
MfG soyo
Hallöle,

MediaInfo wirft folgendes aus:

Code: Alles auswählen

Format                                   : MPEG-PS
File size                                : 12.4 MiB
Duration                                 : 52 s 689 ms
Overall bit rate mode                    : Variable
Overall bit rate                         : 1 971 kb/s

Video
ID                                       : 224 (0xE0)
Format                                   : MPEG Video
Format version                           : Version 1
Format settings, BVOP                    : No
Format settings, Matrix                  : Default
Format settings, GOP                     : Variable
Duration                                 : 52 s 680 ms
Bit rate mode                            : Variable
Bit rate                                 : 1 547 kb/s
Width                                    : 960 pixels
Height                                   : 540 pixels
Display aspect ratio                     : 16:9
Frame rate                               : 25.000 FPS
Color space                              : YUV
Chroma subsampling                       : 4:2:0
Bit depth                                : 8 bits
Scan type                                : Progressive
Compression mode                         : Lossy
Bits/(Pixel*Frame)                       : 0.119
Time code of first frame                 : 00:00:00:00
Time code source                         : Group of pictures header
GOP, Open/Closed                         : Open
GOP, Open/Closed of first frame          : Closed
Stream size                              : 9.72 MiB (79%)

Audio
ID                                       : 192 (0xC0)
Format                                   : MPEG Audio
Format version                           : Version 1
Format profile                           : Layer 2
Duration                                 : 52 s 689 ms
Bit rate mode                            : Constant
Bit rate                                 : 384 kb/s
Channel(s)                               : 2 channels
Sampling rate                            : 44.1 kHz
Frame rate                               : 38.281 FPS (1152 SPF)
Compression mode                         : Lossy
Delay relative to video                  : -11 ms
Stream size                              : 2.41 MiB (19%)
Sieht für mich nicht so ungewöhnlich aus.
Bis dann
Thomas

Benutzeravatar
soyo
Hacker
Hacker
Beiträge: 579
Registriert: 30. Nov 2009, 18:25

Re: Impress Video abspielen

Beitrag von soyo » 2. Mai 2018, 16:17

Hi
Ne , der ist OK.
Aber jetzt weiß ich , wie ein Film zum Testen bei mir aussehen muß .
Hab das nehmlich schon gemacht .
Komme aber erst Morgen dazu .
MfG soyo

Benutzeravatar
soyo
Hacker
Hacker
Beiträge: 579
Registriert: 30. Nov 2009, 18:25

Re: Impress Video abspielen

Beitrag von soyo » 2. Mai 2018, 17:43

Hi
Bin nun genau so weit wie Du.
Unter 6.0.3.2 verhält es sich wie du beschrieben hast (nur Tonsymbol)
Unter 5.1.6.2 fuktioniert alles (mit Bild und Ton)
Ich werd also auch mal schauen , was da los ist .


Edit: gerade gelesen , aus der 6. Version , wurde das VLC-PLUGIN entfernt (ev. liegt es daran)
Dann schreiben die noch "großartig" , wer Neuere Sachen ausprobiren will , soll zur 6er Version greifen .
Wer nur gut arbeiten will soll die 5.4 nutzen :irre:
MfG soyo

Antworten

Wer ist online?

Mitglieder in diesem Forum: 0 Mitglieder und 1 Gast